VA – Ruf Records Antology: 12 Years Of Where Blues Crosses Over (2006) CD/DVD

Ruf Records is proud to present Ruf Records Antology: 12 Years oOf Where Blues Crosses Over. Two discs for the price of one CD celebrating 12 years of German-based Ruf Records, the company that has built its reputation and continuing success primarily on tough modern blues recordings with a rock edge. Born on a late night in a small village bar in the Black Forest of Germany, Ruf records has release 100 albums in 12 years and has become one for the premier blues labels around today. With an impressive artists roster including Bernard Allison, Canned Heat, Sue Foley, Omar & the Howlers, the Night Hawks and Walter trout, Ruf has raised the bar constantly in the world of blues. This CD and DVD combo set features 13 songs on CD and 13 videos on DVD (with entirely different recordings) from 2006 to 1994.

Track List CD:

01. Walter Trout & Jeff Healey – Workin. Overtime [4:02]
02. Sue Foley – New Used Car [4:06]
03. Candye Cane – White Trash Girl [3:14]
04. Ian Parker – It Hurts A Man [6:44]
05. Omar & The Howlers – White Crosses [4:54]
06. Larry Garner – Where The Blues Turn Black [4:45]
07. Ana Popovic – Love Fever [4:30]
08. Kevin Coyne – Whispering Desert [3:16]
09. Aynsley Lister – In The Beginning [4:28]
10. Canned Heat – See These Tears [2:29]
11. Friend .N Fellow – Home [4:00]
12. Bernard Allison – Live Together [5:56]
13. Luther Allison – Put Your Money Where Your Mouth Is [6:30]

Exact Audio Copy V1.3 from 2. September 2016

Отчёт EAC об извлечении, выполненном 10. июля 2018, 19:12

Various Artists / 12 Years Of Where Blues Crosses Over

Дисковод: HL-DT-STDVDRAM GH24NSD0 Adapter: 1 ID: 0

Режим чтения : Достоверность
Использование точного потока : Да
Отключение кэша аудио : Да
Использование указателей C2 : Нет

Коррекция смещения при чтении : 6
Способность читать области Lead-in и Lead-out : Нет
Заполнение пропущенных сэмплов тишиной : Да
Удаление блоков с тишиной в начале и конце : Нет
При вычислениях CRC использовались нулевые сэмплы : Да
Интерфейс : Встроенный Win32-интерфейс для Win NT/2000

Выходной формат : Пользовательский кодировщик
Выбранный битрейт : 128 kBit/s
Качество : Высокий
Добавление ID3-тега : Нет
Утилита сжатия : C:Program Files (x86)Exact Audio CopyFlacflac.exe
Дополнительные параметры : -V -8 -T “Date=%year%” -T “Genre=%genre%” %source%

TOC извлечённого CD

Трек | Старт | Длительность | Начальный сектор | Конечный сектор
––––––––––––––––––––––––––––––––––-
1 | 0:00.00 | 4:02.22 | 0 | 18171
2 | 4:02.22 | 4:05.64 | 18172 | 36610
3 | 8:08.11 | 3:13.42 | 36611 | 51127
4 | 11:21.53 | 6:43.55 | 51128 | 81407
5 | 18:05.33 | 4:53.41 | 81408 | 103423
6 | 22:58.74 | 4:45.17 | 103424 | 124815
7 | 27:44.16 | 4:29.44 | 124816 | 145034
8 | 32:13.60 | 3:15.51 | 145035 | 159710
9 | 35:29.36 | 4:27.61 | 159711 | 179796
10 | 39:57.22 | 2:28.60 | 179797 | 190956
11 | 42:26.07 | 3:59.55 | 190957 | 208936
12 | 46:25.62 | 5:55.58 | 208937 | 235619
13 | 52:21.45 | 6:30.24 | 235620 | 264893

Характеристики диапазона извлечения и сообщения об ошибках

Выбранный диапазон

Имя файла C:UserskhokhOneDriveРабочий столVarious Artists – 12 Years Of Where Blues Crosses Over.wav

Пиковый уровень 98.7 %
Скорость извлечения 7.1 X
Качество диапазона 99.9 %
CRC теста 082792D1
CRC копии 082792D1
Копирование… OK

Ошибок не произошло

AccurateRip: сводка

Трек 1 : извлечено точно (доверие 3) [0375504A] (AR v2)
Трек 2 : извлечено точно (доверие 3) [3659CF9B] (AR v2)
Трек 3 : извлечено точно (доверие 3) [419FD4C3] (AR v2)
Трек 4 : извлечено точно (доверие 3) [1244BB85] (AR v2)
Трек 5 : извлечено точно (доверие 3) [9923F6E6] (AR v2)
Трек 6 : извлечено точно (доверие 3) [914224AD] (AR v2)
Трек 7 : извлечено точно (доверие 3) [70847596] (AR v2)
Трек 8 : извлечено точно (доверие 3) [D73B7EDC] (AR v2)
Трек 9 : извлечено точно (доверие 3) [A7C860D7] (AR v2)
Трек 10 : извлечено точно (доверие 3) [64A45ACE] (AR v2)
Трек 11 : извлечено точно (доверие 3) [D61E676E] (AR v2)
Трек 12 : извлечено точно (доверие 3) [309567D4] (AR v2)
Трек 13 : извлечено точно (доверие 3) [79B19B06] (AR v2)

Все треки извлечены точно

Конец отчёта

==== Контрольная сумма отчёта 5D9D072807AA7907A2D8143DFDF50A4C5D26B0654325CA102BCAEBCE9DAD99F9 ====

[CUETools log; Date: 11.07.2018 19:18:40; Version: 2.1.6]
[CTDB TOCID: 9swQ5Kt36r3WTy61wUO8ja22cTM-] found.
Track | CTDB Status
1 | (30/30) Accurately ripped
2 | (30/30) Accurately ripped
3 | (30/30) Accurately ripped
4 | (30/30) Accurately ripped
5 | (30/30) Accurately ripped
6 | (30/30) Accurately ripped
7 | (29/30) Accurately ripped
8 | (30/30) Accurately ripped
9 | (30/30) Accurately ripped
10 | (30/30) Accurately ripped
11 | (30/30) Accurately ripped
12 | (29/30) Accurately ripped
13 | (29/30) Accurately ripped
[AccurateRip ID: 001b793e-011311e6-bf0dcb0d] found.
Track [ CRC | V2 ] Status
01 [447d6783|0375504a] (02+03/22) Accurately ripped
02 [b7fc827f|3659cf9b] (02+03/22) Accurately ripped
03 [c1290bbf|419fd4c3] (02+03/22) Accurately ripped
04 [b4d7dfb8|1244bb85] (02+03/21) Accurately ripped
05 [864e6219|9923f6e6] (02+03/22) Accurately ripped
06 [f918ee93|914224ad] (02+03/22) Accurately ripped
07 [05427f3d|70847596] (02+03/22) Accurately ripped
08 [10377da9|d73b7edc] (02+03/22) Accurately ripped
09 [d384d063|a7c860d7] (02+03/22) Accurately ripped
10 [a4105002|64a45ace] (02+03/22) Accurately ripped
11 [ec3ed5af|d61e676e] (02+03/22) Accurately ripped
12 [337a2377|309567d4] (02+03/22) Accurately ripped
13 [dd39fb59|79b19b06] (02+03/22) Accurately ripped
Offsetted by -11:
01 [9f8624ad] (08/22) Accurately ripped
02 [6cc9ee21] (08/22) Accurately ripped
03 [1398d7fe] (08/22) Accurately ripped
04 [0471ab9a] (07/21) Accurately ripped
05 [ce33118c] (08/22) Accurately ripped
06 [d29cfd11] (08/22) Accurately ripped
07 [3e68cbbf] (08/22) Accurately ripped
08 [e151e581] (08/22) Accurately ripped
09 [7658413f] (08/22) Accurately ripped
10 [ce08967d] (08/22) Accurately ripped
11 [8759c51e] (08/22) Accurately ripped
12 [9e58e90a] (08/22) Accurately ripped
13 [0e8e39bd] (08/22) Accurately ripped
Offsetted by -675:
01 [d0db797d] (00/22) No match (V2 was not tested)
02 [9a5120b1] (00/22) No match (V2 was not tested)
03 [326d526a] (00/22) No match (V2 was not tested)
04 [30e273a6] (00/21) No match (V2 was not tested)
05 [59a15f40] (00/22) No match (V2 was not tested)
06 [95c629a5] (00/22) No match (V2 was not tested)
07 [2c87ed4f] (00/22) No match (V2 was not tested)
08 [2f8bd641] (00/22) No match (V2 was not tested)
09 [adacf9ba] (00/22) No match (V2 was not tested)
10 [e620662c] (00/22) No match (V2 was not tested)
11 [59173b3a] (00/22) No match (V2 was not tested)
12 [ef91ecdb] (00/22) No match (V2 was not tested)
13 [642102c2] (00/22) No match (V2 was not tested)

Track Peak [ CRC32 ] [W/O NULL] [ LOG ]
– 98,7 [082792D1] [1AB11724] CRC32
01 94,4 [85A23ADF] [D23C28B1]
02 94,4 [0E41E35F] [CEF08BED]
03 94,4 [F9921190] [7A4593B9]
04 94,4 [A30B7E63] [076C5D4F]
05 94,4 [4667BF3C] [FA9FB667]
06 94,4 [D9FE145D] [F3F94F73]
07 94,4 [38D39B91] [0C4578F7]
08 94,4 [A2292618] [22486168]
09 94,4 [83DCBAAC] [DD08E6F5]
10 98,7 [7F003E30] [5FB5F621]
11 94,4 [3F5B5D67] [4A9799CF]
12 94,4 [CA212859] [33902A6B]
13 94,4 [A44CDCB7] [4E45E43E]

Track List DVD:

01. Bluescaravan – All The Time
02. Sue Foley – Absolution
03. Bob Brozman – Rolling Through The World
04. Bernard Allison – Bas Love
05. Omar & The Howlers – Monkey Land
06. Robin Trower – Living Out Of Time
07. Ana Popovic – Don’t Bear Down On Me
08. Ian Parker – Awake At Night
09. Imperial Crowns – Lil’ Death
10. Aynsley Lister – Say Goobye
11. Walter Trout – Work No More
12. Friend`n Fellow – You
13. Luther Allison – Bad love (video clip-previously unreleased)

General
Complete name : D:VA – Ruf Records Antology – 12 Years of Where Blues Crosses Over (2006) CD+DVDDVDVIDEO_TSVTS_02_2.VOB
Format : MPEG-PS
File size : 1 024 MiB
Duration : 1 min 55 s
Overall bit rate mode : Variable
Overall bit rate : 74.5 Mb/s

Video
ID : 224 (0xE0)
Format : MPEG Video
Format version : Version 2
Format profile : [email protected]
Format settings : CustomMatrix / BVOP
Format settings, BVOP : Yes
Format settings, Matrix : Custom
Format settings, GOP : Variable
Duration : 1 min 53 s
Bit rate mode : Variable
Bit rate : 70.3 Mb/s
Maximum bit rate : 6 900 kb/s
Width : 720 pixels
Height : 480 pixels
Display aspect ratio : 16:9
Frame rate : 29.970 (30000/1001) FPS
Standard : NTSC
Color space : YUV
Chroma subsampling : 4:2:0
Bit depth : 8 bits
Scan type : Progressive
Scan order : Bottom Field First
Compression mode : Lossy
Bits/(Pixel*Frame) : 6.789
Time code of first frame : 01:09:32:18
Time code source : Group of pictures header
Stream size : 948 MiB (93%)

Audio #1
ID : 189 (0xBD)-129 (0x81)
Format : AC-3
Format/Info : Audio Coding 3
Muxing mode : DVD-Video
Duration : 1 min 55 s
Bit rate mode : Constant
Bit rate : 448 kb/s
Channel(s) : 6 channels
Channel positions : Front: L C R, Side: L R, LFE
Sampling rate : 48.0 kHz
Frame rate : 31.250 FPS (1536 SPF)
Bit depth : 16 bits
Compression mode : Lossy
Delay relative to video : -364 ms
Stream size : 6.15 MiB (1%)
Service kind : Complete Main

Audio #2
ID : 189 (0xBD)-138 (0x8A)
Format : DTS
Format/Info : Digital Theater Systems
Muxing mode : DVD-Video
Duration : 1 min 55 s
Bit rate mode : Constant
Bit rate : 755 kb/s
Channel(s) : 6 channels
Channel positions : Front: L C R, Side: L R, LFE
Sampling rate : 48.0 kHz
Frame rate : 93.750 FPS (512 SPF)
Bit depth : 24 bits
Compression mode : Lossy
Delay relative to video : -396 ms
Stream size : 10.4 MiB (1%)

Audio #3
ID : 189 (0xBD)-160 (0xA0)
Format : PCM
Format settings : Big / Signed
Muxing mode : DVD-Video
Duration : 1 min 55 s
Bit rate mode : Constant
Bit rate : 1 536 kb/s
Channel(s) : 2 channels
Sampling rate : 48.0 kHz
Bit depth : 16 bits
Delay relative to video : -404 ms
Stream size : 21.1 MiB (2%)

Menu

General
Complete name : D:VA – Ruf Records Antology – 12 Years of Where Blues Crosses Over (2006) CD+DVDDVDVIDEO_TSVTS_02_3.VOB
Format : MPEG-PS
File size : 1 024 MiB
Overall bit rate mode : Variable

Video
ID : 224 (0xE0)
Format : MPEG Video
Format version : Version 2
Format profile : [email protected]
Format settings : CustomMatrix / BVOP
Format settings, BVOP : Yes
Format settings, Matrix : Custom
Bit rate mode : Variable
Maximum bit rate : 6 900 kb/s
Width : 720 pixels
Height : 480 pixels
Display aspect ratio : 16:9
Frame rate : 29.970 (30000/1001) FPS
Standard : NTSC
Color space : YUV
Chroma subsampling : 4:2:0
Bit depth : 8 bits
Scan type : Progressive
Scan order : Bottom Field First
Compression mode : Lossy
Time code of first frame : 01:11:27:19
Time code source : Group of pictures header

Audio #1
ID : 189 (0xBD)-129 (0x81)
Format : AC-3
Format/Info : Audio Coding 3
Muxing mode : DVD-Video
Bit rate mode : Constant
Bit rate : 448 kb/s
Channel(s) : 6 channels
Channel positions : Front: L C R, Side: L R, LFE
Sampling rate : 48.0 kHz
Frame rate : 31.250 FPS (1536 SPF)
Bit depth : 16 bits
Compression mode : Lossy
Delay relative to video : -248 ms
Service kind : Complete Main

Audio #2
ID : 189 (0xBD)-138 (0x8A)
Format : DTS
Format/Info : Digital Theater Systems
Muxing mode : DVD-Video
Bit rate mode : Constant
Bit rate : 755 kb/s
Channel(s) : 6 channels
Channel positions : Front: L C R, Side: L R, LFE
Sampling rate : 48.0 kHz
Frame rate : 93.750 FPS (512 SPF)
Bit depth : 24 bits
Compression mode : Lossy
Delay relative to video : -301 ms

Audio #3
ID : 189 (0xBD)-160 (0xA0)
Format : PCM
Format settings : Big / Signed
Muxing mode : DVD-Video
Bit rate mode : Constant
Bit rate : 1 536 kb/s
Channel(s) : 2 channels
Sampling rate : 48.0 kHz
Bit depth : 16 bits
Delay relative to video : -300 ms

Menu

General
Complete name : D:VA – Ruf Records Antology – 12 Years of Where Blues Crosses Over (2006) CD+DVDDVDVIDEO_TSVTS_02_4.VOB
Format : MPEG-PS
File size : 686 MiB
Overall bit rate mode : Variable

Video
ID : 224 (0xE0)
Format : MPEG Video
Format version : Version 2
Format profile : [email protected]
Format settings : CustomMatrix / BVOP
Format settings, BVOP : Yes
Format settings, Matrix : Custom
Format settings, GOP : Variable
Bit rate mode : Variable
Maximum bit rate : 6 900 kb/s
Width : 720 pixels
Height : 480 pixels
Display aspect ratio : 16:9
Frame rate : 29.970 (30000/1001) FPS
Standard : NTSC
Color space : YUV
Chroma subsampling : 4:2:0
Bit depth : 8 bits
Scan type : Progressive
Scan order : Bottom Field First
Compression mode : Lossy
Time code of first frame : 01:04:41:25
Time code source : Group of pictures header
GOP, Open/Closed : Closed

Audio #1
ID : 189 (0xBD)-129 (0x81)
Format : AC-3
Format/Info : Audio Coding 3
Muxing mode : DVD-Video
Bit rate mode : Constant
Bit rate : 448 kb/s
Channel(s) : 6 channels
Channel positions : Front: L C R, Side: L R, LFE
Sampling rate : 48.0 kHz
Frame rate : 31.250 FPS (1536 SPF)
Bit depth : 16 bits
Compression mode : Lossy
Delay relative to video : -483 ms
Service kind : Complete Main

Audio #2
ID : 189 (0xBD)-138 (0x8A)
Format : DTS
Format/Info : Digital Theater Systems
Muxing mode : DVD-Video
Bit rate mode : Constant
Bit rate : 755 kb/s
Channel(s) : 6 channels
Channel positions : Front: L C R, Side: L R, LFE
Sampling rate : 48.0 kHz
Frame rate : 93.750 FPS (512 SPF)
Bit depth : 24 bits
Compression mode : Lossy
Delay relative to video : -515 ms

Audio #3
ID : 189 (0xBD)-160 (0xA0)
Format : PCM
Format settings : Big / Signed
Muxing mode : DVD-Video
Bit rate mode : Constant
Bit rate : 1 536 kb/s
Channel(s) : 2 channels
Sampling rate : 48.0 kHz
Bit depth : 16 bits
Delay relative to video : -523 ms

General
Complete name : D:VA – Ruf Records Antology – 12 Years of Where Blues Crosses Over (2006) CD+DVDDVDVIDEO_TSVTS_03_1.VOB
Format : MPEG-PS
File size : 1 024 MiB
Duration : 44 s 128 ms
Overall bit rate mode : Variable
Overall bit rate : 195 Mb/s

Video
ID : 224 (0xE0)
Format : MPEG Video
Format version : Version 2
Format profile : [email protected]
Format settings : CustomMatrix / BVOP
Format settings, BVOP : Yes
Format settings, Matrix : Custom
Format settings, GOP : Variable
Duration : 41 s 375 ms
Bit rate mode : Variable
Bit rate : 188 Mb/s
Maximum bit rate : 6 900 kb/s
Width : 720 pixels
Height : 480 pixels
Display aspect ratio : 4:3
Frame rate : 29.970 (30000/1001) FPS
Standard : NTSC
Color space : YUV
Chroma subsampling : 4:2:0
Bit depth : 8 bits
Scan type : Progressive
Scan order : Bottom Field First
Compression mode : Lossy
Bits/(Pixel*Frame) : 18.155
Time code of first frame : 01:00:00:15
Time code source : Group of pictures header
GOP, Open/Closed : Closed
Stream size : 927 MiB (91%)

Audio #1
ID : 189 (0xBD)-129 (0x81)
Format : AC-3
Format/Info : Audio Coding 3
Muxing mode : DVD-Video
Duration : 44 s 128 ms
Bit rate mode : Constant
Bit rate : 448 kb/s
Channel(s) : 6 channels
Channel positions : Front: L C R, Side: L R, LFE
Sampling rate : 48.0 kHz
Frame rate : 31.250 FPS (1536 SPF)
Bit depth : 16 bits
Compression mode : Lossy
Stream size : 2.36 MiB (0%)
Service kind : Complete Main

Audio #2
ID : 189 (0xBD)-138 (0x8A)
Format : DTS
Format/Info : Digital Theater Systems
Muxing mode : DVD-Video
Duration : 44 s 117 ms
Bit rate mode : Constant
Bit rate : 755 kb/s
Channel(s) : 6 channels
Channel positions : Front: L C R, Side: L R, LFE
Sampling rate : 48.0 kHz
Frame rate : 93.750 FPS (512 SPF)
Bit depth : 24 bits
Compression mode : Lossy
Stream size : 3.97 MiB (0%)

Audio #3
ID : 189 (0xBD)-160 (0xA0)
Format : PCM
Format settings : Big / Signed
Muxing mode : DVD-Video
Duration : 44 s 103 ms
Bit rate mode : Constant
Bit rate : 1 536 kb/s
Channel(s) : 2 channels
Sampling rate : 48.0 kHz
Bit depth : 16 bits
Stream size : 8.08 MiB (1%)

Menu

General
Complete name : D:VA – Ruf Records Antology – 12 Years of Where Blues Crosses Over (2006) CD+DVDDVDVIDEO_TSVTS_03_2.VOB
Format : MPEG-PS
File size : 605 MiB
Duration : 4 min 12 s
Overall bit rate mode : Constant
Overall bit rate : 20.1 Mb/s

Video
ID : 224 (0xE0)
Format : MPEG Video
Format version : Version 2
Format profile : [email protected]
Format settings : CustomMatrix / BVOP
Format settings, BVOP : Yes
Format settings, Matrix : Custom
Format settings, GOP : Variable
Duration : 4 min 11 s
Bit rate mode : Constant
Bit rate : 17.0 Mb/s
Maximum bit rate : 6 000 kb/s
Width : 720 pixels
Height : 480 pixels
Display aspect ratio : 4:3
Frame rate : 29.970 (30000/1001) FPS
Standard : NTSC
Color space : YUV
Chroma subsampling : 4:2:0
Bit depth : 8 bits
Scan type : Progressive
Scan order : Bottom Field First
Compression mode : Lossy
Bits/(Pixel*Frame) : 1.638
Time code of first frame : 01:00:44:25
Time code source : Group of pictures header
Stream size : 509 MiB (84%)

Audio #1
ID : 189 (0xBD)-129 (0x81)
Format : AC-3
Format/Info : Audio Coding 3
Muxing mode : DVD-Video
Duration : 4 min 12 s
Bit rate mode : Constant
Bit rate : 448 kb/s
Channel(s) : 6 channels
Channel positions : Front: L C R, Side: L R, LFE
Sampling rate : 48.0 kHz
Frame rate : 31.250 FPS (1536 SPF)
Bit depth : 16 bits
Compression mode : Lossy
Delay relative to video : -186 ms
Stream size : 13.5 MiB (2%)
Service kind : Complete Main

Audio #2
ID : 189 (0xBD)-138 (0x8A)
Format : DTS
Format/Info : Digital Theater Systems
Muxing mode : DVD-Video
Duration : 4 min 12 s
Bit rate mode : Constant
Bit rate : 755 kb/s
Channel(s) : 6 channels
Channel positions : Front: L C R, Side: L R, LFE
Sampling rate : 48.0 kHz
Frame rate : 93.750 FPS (512 SPF)
Bit depth : 24 bits
Compression mode : Lossy
Delay relative to video : -261 ms
Stream size : 22.7 MiB (4%)

Audio #3
ID : 189 (0xBD)-160 (0xA0)
Format : PCM
Format settings : Big / Signed
Muxing mode : DVD-Video
Duration : 4 min 12 s
Bit rate mode : Constant
Bit rate : 1 536 kb/s
Channel(s) : 2 channels
Sampling rate : 48.0 kHz
Bit depth : 16 bits
Delay relative to video : -265 ms
Stream size : 46.3 MiB (8%)

Menu

DOWNLOAD LINK