Cavern Of Anti-Matter – Hormone Lemonade (2018)

Cavern Of Anti-Matter return for their third studio album on their own Duophonic label. Hormone Lemonade sees the band heavily utilising the sounds of modular synths and home built drum machines, yet still keeping the loose, improvised sound familiar to fans of their first two albums, with minimal guitar melodies and live drum kit helping to build hypnotic layers of texture.

The albums genesis was in the self-constructed rhythm machines of band member Holger Zapf, the Taktron Z3 and Taktron Z2, being recorded to tape during three one-hour sessions. These sessions also included the use of 70s Hohner and Eko drum machines. Holger played his parts in a free-form way and the bpm varied wildly as it was not possible to sync it to any outside controllers.

Tim Gane edited these initial jams into useable chunks and proceeded to overdub each new rhythmic “chunk” with some basic musical ideas, keeping in tune to the hum of the machines and retaining the “feel” of the inherent pulse. Joe Dilworth arrived to lay down a beat over these minimal backing tracks, going with the flow as best he could.

In the following months the music was fleshed out using various synths and sequencers from Roland, Arp, Oberheim and Holger’s modular synth set up. As well as many of the bass and sequencer parts the modular also supplied the chords by tuning each one of it’s five oscillators to specific notes and intervals.

Tracklist:
1. Malfunction (16:34)
2. Make Out Fade Out (03:11)
3. Phase Modulation Shuffle (05:21)
4. Solarised Sound (07:03)
5. Outerzone Jazs (04:28)
6. Automatic Morning (06:49)
7. Feed Me Magnetic Rain (05:13)
8. Motion Flow (04:15)
9. Remote Confection (06:30)
10. Phantom Melodies (05:44)

Exact Audio Copy V1.3 from 2. September 2016

EAC extraction logfile from 10. August 2021, 6:49

Cavern of Anti-Matter / Hormone Lemonade

Used drive : HL-DT-STBD-RE WH16NS40 Adapter: 1 ID: 0

Read mode : Secure
Utilize accurate stream : Yes
Defeat audio cache : Yes
Make use of C2 pointers : No

Read offset correction : 6
Overread into Lead-In and Lead-Out : No
Fill up missing offset samples with silence : Yes
Delete leading and trailing silent blocks : No
Null samples used in CRC calculations : Yes
Used interface : Native Win32 interface for Win NT & 2000
Gap handling : Appended to previous track

Used output format : User Defined Encoder
Selected bitrate : 1024 kBit/s
Quality : High
Add ID3 tag : No
Command line compressor : C:Program Files (x86)Exact Audio CopyFlacflac.exe
Additional command line options : -8 -V -T “ARTIST=%artist%” -T “TITLE=%title%” -T “ALBUM=%albumtitle%” -T “DATE=%year%” -T “TRACKNUMBER=%tracknr%” -T “GENRE=%genre%” -T “PERFORMER=%albuminterpret%” -T “COMPOSER=%composer%” %haslyrics%–tag-from-file=LYRICS=”%lyricsfile%”%haslyrics% -T “ALBUMARTIST=%albumartist%” -T “DISCNUMBER=%cdnumber%” -T “TOTALDISCS=%totalcds%” -T “TOTALTRACKS=%numtracks%” -T “COMMENT=%comment%” %source% -o %dest%

TOC of the extracted CD

Track | Start | Length | Start sector | End sector
––––––––––––––––––––––––––––-
1 | 0:00.00 | 16:34.32 | 0 | 74581
2 | 16:34.32 | 3:11.06 | 74582 | 88912
3 | 19:45.38 | 5:20.72 | 88913 | 112984
4 | 25:06.35 | 7:03.26 | 112985 | 144735
5 | 32:09.61 | 4:27.54 | 144736 | 164814
6 | 36:37.40 | 6:48.56 | 164815 | 195470
7 | 43:26.21 | 5:13.16 | 195471 | 218961
8 | 48:39.37 | 4:14.51 | 218962 | 238062
9 | 52:54.13 | 6:29.45 | 238063 | 267282
10 | 59:23.58 | 5:44.00 | 267283 | 293082

Track 1

Filename C:EACCavern Of Anti-Matter – Hormone Lemonade (2018) [FLAC] {DUHFCD38}1 – Malfunction.wav

Pre-gap length 0:00:02.00

Peak level 100.0 %
Extraction speed 2.6 X
Track quality 100.0 %
Test CRC 23145EA3
Copy CRC 23145EA3
Accurately ripped (confidence 12) [A3C01F9E] (AR v2)
Copy OK

Track 2

Filename C:EACCavern Of Anti-Matter – Hormone Lemonade (2018) [FLAC] {DUHFCD38}2 – Make Out Fade Out.wav

Peak level 100.0 %
Extraction speed 2.7 X
Track quality 100.0 %
Test CRC B413B2C4
Copy CRC B413B2C4
Accurately ripped (confidence 12) [668F6568] (AR v2)
Copy OK

Track 3

Filename C:EACCavern Of Anti-Matter – Hormone Lemonade (2018) [FLAC] {DUHFCD38}3 – Phase Modulation Shuffle.wav

Peak level 100.0 %
Extraction speed 3.0 X
Track quality 100.0 %
Test CRC 43619CF7
Copy CRC 43619CF7
Accurately ripped (confidence 12) [B86C9FE1] (AR v2)
Copy OK

Track 4

Filename C:EACCavern Of Anti-Matter – Hormone Lemonade (2018) [FLAC] {DUHFCD38}4 – Solarised Sound.wav

Peak level 100.0 %
Extraction speed 3.4 X
Track quality 100.0 %
Test CRC 196E421F
Copy CRC 196E421F
Accurately ripped (confidence 12) [B8381F5A] (AR v2)
Copy OK

Track 5

Filename C:EACCavern Of Anti-Matter – Hormone Lemonade (2018) [FLAC] {DUHFCD38}5 – Outerzone Jazs.wav

Peak level 100.0 %
Extraction speed 3.4 X
Track quality 100.0 %
Test CRC 481FEC73
Copy CRC 481FEC73
Accurately ripped (confidence 12) [03C4B92B] (AR v2)
Copy OK

Track 6

Filename C:EACCavern Of Anti-Matter – Hormone Lemonade (2018) [FLAC] {DUHFCD38}6 – Automatic Morning.wav

Peak level 100.0 %
Extraction speed 3.8 X
Track quality 100.0 %
Test CRC 48107C3A
Copy CRC 48107C3A
Accurately ripped (confidence 12) [CFE95F4E] (AR v2)
Copy OK

Track 7

Filename C:EACCavern Of Anti-Matter – Hormone Lemonade (2018) [FLAC] {DUHFCD38}7 – Feed Me Magnetic Rain.wav

Peak level 100.0 %
Extraction speed 3.9 X
Track quality 100.0 %
Test CRC E9C30F5E
Copy CRC E9C30F5E
Accurately ripped (confidence 12) [F4BFBA77] (AR v2)
Copy OK

Track 8

Filename C:EACCavern Of Anti-Matter – Hormone Lemonade (2018) [FLAC] {DUHFCD38}8 – Motion Flow.wav

Peak level 100.0 %
Extraction speed 3.9 X
Track quality 100.0 %
Test CRC B250F1A0
Copy CRC B250F1A0
Accurately ripped (confidence 12) [89D61E41] (AR v2)
Copy OK

Track 9

Filename C:EACCavern Of Anti-Matter – Hormone Lemonade (2018) [FLAC] {DUHFCD38}9 – Remote Confection.wav

Peak level 99.9 %
Extraction speed 4.2 X
Track quality 100.0 %
Test CRC CB3EB3E5
Copy CRC CB3EB3E5
Accurately ripped (confidence 12) [CA221E68] (AR v2)
Copy OK

Track 10

Filename C:EACCavern Of Anti-Matter – Hormone Lemonade (2018) [FLAC] {DUHFCD38}10 – Phantom Melodies.wav

Peak level 100.0 %
Extraction speed 4.3 X
Track quality 100.0 %
Test CRC B5984B66
Copy CRC B5984B66
Accurately ripped (confidence 12) [2A432B25] (AR v2)
Copy OK

All tracks accurately ripped

No errors occurred

End of status report

–– CUETools DB Plugin V2.1.6

[CTDB TOCID: YGgAvYJGgC.W3X5I_fzbTHyRKC8-] found
Submit result: YGgAvYJGgC.W3X5I_fzbTHyRKC8- has been confirmed
Track | CTDB Status
1 | (28/28) Accurately ripped
2 | (28/28) Accurately ripped
3 | (28/28) Accurately ripped
4 | (28/28) Accurately ripped
5 | (28/28) Accurately ripped
6 | (27/28) Accurately ripped
7 | (28/28) Accurately ripped
8 | (28/28) Accurately ripped
9 | (28/28) Accurately ripped
10 | (28/28) Accurately ripped

==== Log checksum A2E5C9D9EFAEE5CDE483BDE245CD90AD7C75FB43C25A228B98D9F1CF8128B269 ====

Thanks to the Original ripper !

DOWNLOAD LINK